El post que buscas se encuentra eliminado, pero este también te puede interesar

Auto al Dia - Test Fiat Palio Essence 1.6 E.TorQ

Fiat Palio Essence 1.6 E.TorQ


Auto al Dia -  Test Fiat Palio Essence 1.6 E.TorQ
fiat dia autoal


palio
General
File size : 351 MiB
Duration : 43mn 2s
Overall bit rate : 1 139 Kbps
Video
Codec ID/Hint : XviD
Duration : 43mn 2s
Bit rate : 999 Kbps
Width : 432 pixels
Height : 320 pixels
Display aspect ratio : 4:3
Frame rate : 25.000 fps
Stream size : 308 MiB (88%)
Audio
Duration : 43mn 1s
Bit rate mode : Constant
Bit rate : 128 Kbps
Channel(s) : 1 channel
Sampling rate : 44.1 KHz
Stream size : 39.4 MiB (11%)



2011


auto al dia

9 comentarios - Auto al Dia - Test Fiat Palio Essence 1.6 E.TorQ

@_ChAsMaN_
Descargando. Lo hubieras cargado aotro servidor, este solo te deja descargar 1 archivo cada 25 minutos
@fra_09
Bien, me anda gustando este auto, yo tengo el 1.8 y megustaría cambiarlo por el 1.6
@nicolas61295
my bueno, pero, tendrias el nº220?(el del palio 2008 1.4)
@HuBie
Hola amigo, podrías resubir los archivos? Están caídos. Gracias.
@HuBie
Gracias por resubir! Gran aporte. +10
@seba3689
Hola Nico se que hace un tiempo que hiciste el post, pero queria saber si me podrias pasar el test del palio essence con motor 1.6, ya que no lo puedo encontrar por ningun lado, muchas gracias