Fiat Palio Essence 1.6 E.TorQ


Auto al Dia -  Test Fiat Palio Essence 1.6 E.TorQ
fiat dia autoal


palio
General
File size : 351 MiB
Duration : 43mn 2s
Overall bit rate : 1 139 Kbps
Video
Codec ID/Hint : XviD
Duration : 43mn 2s
Bit rate : 999 Kbps
Width : 432 pixels
Height : 320 pixels
Display aspect ratio : 4:3
Frame rate : 25.000 fps
Stream size : 308 MiB (88%)
Audio
Duration : 43mn 1s
Bit rate mode : Constant
Bit rate : 128 Kbps
Channel(s) : 1 channel
Sampling rate : 44.1 KHz
Stream size : 39.4 MiB (11%)



2011


auto al dia