Albums Completos en Youtube ¿Cómo bajar y quemar en CD?

Seguramente habrán encontrado en Youtube algún Álbum completo de su banda favorita y se preguntaron ¿Como lo descargo?
Bueno en este tutorial les enseño como bajar y quemar el álbum a cd, con las respectivas divisiones para cambiar entre canciones.

PD: Para una lectura mas rápida para los usuarios avanzados lo dividí en 3 partes:

1.- Bajar el Álbum
2.- Preparar los ficheros
3.- Quemar en CD




1.- Bajar el Album

Hay 1001 manera de bajar de Youtube, pero la forma que mas me gusta es con Mozilla Firefox y un pequeño Add-on llamado Video Flash Downloader

https://addons.mozilla.org/en-US/firefox/addon/flash-video-downloader-youtube/

No hay mucho que ajustar en lo anterior asi que una vez instalado vamos a buscar un disco que nos guste... que les parece

SODOM - Agent Orange (1989)


link: http://www.youtube.com/watch?v=WB39ov5Fy2A


Te gustó? vamos a la flecha azul de Video Flash Downloader y seleccionamos el link de 720 pix (link HD)

Albums Completos en Youtube ¿Cómo bajar y quemar en CD?

Pd: Al final del post agrego instrucciones para el caso que descargaran un disco en High, Low ó SD

En lo que descarga pasamos al siguiente paso....





2.- Preparar los ficheros

Vamos a http://tracktype.com/ y escribimos el nombre del disco en el buscador, y del resultado seleccionamos uno que concuerde con la duracion del video de youtube... por ejemplo:

youtube: 37.16
tracktype: 37.18 http://tracktype.com/index.html?fDisc/3007953

Ese funcionara muy bien... ahora damos click en el link que aparece abajo de DiscID, algo asi como rock/7608bc08
Copiamos el codigo de la pagina que aparece en el link por ejemplo:

# xmcd # # Track frame offsets: # 150 # 27548 # 52045 # 73018 # 92597 # 119591 # 135816 # 149695 # # Disc length: 2238 seconds # # Revision: 1 # Processed by: tracktype.org # Submitted via: AudioConverter v4.0 Copyright (c) Dennis Rebentrost # DISCID=7608bc08 DTITLE=Sodom / Agent Orange DYEAR=1989 DGENRE=Metal TTITLE0=Agent Orange TTITLE1=Tired And Red TTITLE2=Incest TTITLE3=Remember The Fallen TTITLE4=Magic Dragon TTITLE5=Exhibition Bout TTITLE6=Ausgebombt TTITLE7=Baptism Of Fire EXTD= EXTT0= EXTT1= EXTT2= EXTT3= EXTT4= EXTT5= EXTT6= EXTT7= PLAYORDER=


Y lo pegamos en un archivo de texto nuevo, que guardaremos en la misma carpeta que estamos descargando el Album...

Ahora descargamos un programita llamado CueMaster : http://cuemaster.org/download.html

Una vez en CueMaster le damos Abrir y seleccionamos el archivo de texto que creamos anteriormente, para este momento Cuemaster debe verse asi:
albums

Damos Click en guardar como y nombraremos el archivo : Sodom - Agent Orange

Ahora, si ya tenemos la descarga completada, reenombraremos el archivo Sodom - Agent Orange [Full Album] (HD).mp4 a Sodom - Agent Orange.mp3 (OJO en este paso cambie la extension)



Listo!





3.- Quemar en Cd

En este paso posiblemente quieran verificar el resultado antes de desperdiciar un CD virgen, asi que realizaremos una imagen de CD primero.

Para este paso necesitan un programa para quemar CDs... como yo soy muy oldschool voy a sacar mi NERO 6.6

Abrimos Nero Express y damos click en DISC IMAGE or Saved Project
Seleccionamos nuestro archivo .CUE (ojo para que esto funcione el archivo .cue y el .mp3 deben llamarse igual y estar en la misma carpeta)

En Destination Drive seleccionamos el Quemador virtual de Nero, el Image Recorder

Seleccionamos destino y creamos.

Para cargar la imagen que hemos creado abrimos Nero ImageDrive, Activamos la primera unidad y cargamos....

Listo! ya pueden preescuchar el cd y los puntos Cue donde pueden cambiar de tema en tema, si desean quemar la imagen ya saben que hacer....



Pd: Si el album no esta disponible en HD pueden bajarlo en High, Low o Sd, pero NERO no sabra leer el archivo flv que generaran asi que deben demultiplexarlo con FLVextract http://www.videohelp.com/tools/FLV-Extract
Y renombrar el archivo .AAC a MP3.... y mismo pedo.

Este Tutorial es propio, y pueden hacer uso de el enteramente con Copy/Paste, pero les agradeceria el credito...

5 comentarios - Albums Completos en Youtube ¿Cómo bajar y quemar en CD?

JLCortazar
La idea es muy buena... pero no es más fácil bajarlos directamente de un torrent?
JLCortazar
perropunk dijo:
JLCortazar dijo:La idea es muy buena... pero no es más fácil bajarlos directamente de un torrent?

Si hay otras formas mas fáciles, este metodo es para discos dificiles de encontrar, y que ademas esten hosteados en buena calidad...
Pero intentalo... una vez teniendo las herramientas y la practica lo haces en 1 minuto

Okay, gracias!
xlss10
y con google chrome?