El post que buscas se encuentra eliminado, pero este también te puede interesar

Salmo 21 2011 Dvdrip Terror Ing Sub

Salmo 21 2011 Dvdrip Terror Ing Sub

Titulo Original: Psalm 21
Título Traduzido: Salmo.21
Gênero: Terror
Duracion: 93 Min
Diretor: Fredrik Hiller
Ano de Lanzamiento: 2011

SINOPSIS

Henrik es un joven sacerdote que vive en Estocolmo, constantemente atormentado por las pesadillas de su madre muerta. Un día recibe la noticia de que su padre, un sacerdote que vive en una aldea remota, se ahogó y murió. Las circunstancias que se están ahogando misteriosa. Henrik viaja a la aldea para investigar las causas de su muerte. Por saber más acerca de ahogamiento y de su padre, se abre la puerta a lo desconocido. Sombras del pasado emergen, volviendo a este mundo por una razón: la venganza.

INFORMACION

Video
ID : 224 (0xE0)
Format : MPEG Video
Format version : Version 1
Format settings, BVOP : Yes
Format settings, Matrix : Default
Duration : 1h 38mn
Bit rate mode : Variable
Bit rate : 937 Kbps
Width : 352 pixels
Height : 240 pixels
Display aspect ratio : 16:9
Frame rate : 29.970 fps
Standard : NTSC
Color space : YUV
Bit depth : 8 bits
Scan type : Progressive
Compression mode : Lossy
Bits/(Pixel*Frame) : 0.370
Stream size : 658 MiB (86%)
Writing library : TMPGEnc XPress 4.7.6.304

Audio
ID : 192 (0xC0)
Format : MPEG Audio
Format version : Version 1
Format profile : Layer 2
Duration : 1h 38mn
Bit rate mode : Constant
Bit rate : 128 Kbps
Channel(s) : 2 channels
Sampling rate : 44.1 KHz
Compression mode : Lossy
Stream size : 89.9 MiB (12%)


CAPTURAS

mpg
21
descargas
2011

DESCARGA

(en los comentarios)

COMENTAR ES AGRADECER Y PUNTUAR TAMBIEN

3 comentarios - Salmo 21 2011 Dvdrip Terror Ing Sub