Check the new version here

Popular channels

El Discurso del Rey [Full HD][Latino][MU][4gb]

El Discurso del Rey

(Gentileza de www.Gojula.net)



Tamaño de la película : 4.7 GB

Video

Format : AVC
Duration : 1h 58mn
Bit rate : 5 000 Kbps
Width : 1 920 pixels
Height : 1 080 pixels
Display aspect ratio : 16:9
Frame rate : 23.976 fps
Stream size : 4.19 GiB (88%)

Audio


Format : AC-3
Duration : 1h 58mn
Bit rate : 448 Kbps
Channel(s) : 6 channels
Stream size : 380 MiB (8%)

Argumento

El duque de York se convirtió en rey de Gran Bretaña con el nombre de Jorge VI (1936-1952), tras la abdicación de su hermano mayor Eduardo VIII. Su tartamudez, que constituía un gran inconveniente para el ejercicio de sus funciones, lo llevó a buscar la ayuda de Lionel Logue, un experto logopeda que consiguió, empleando una serie de técnicas poco ortodoxas, eliminar este defecto del rey..

RAR con los links

http://www.megaupload.com/?d=HA2KLRX3
0
0
0
1
0No comments yet