Check the new version here

Popular channels

Tekken (2010) [DVDRip][Subesp] online Download 1 Link



Sinopsis

Un joven que busca venganza tras la muerte de sus padres busca ayuda en su abuelo, Heihachi Mishima, a quien suplicará que entrene para vengarse. Tras el anuncio de un importante torneo, el “King of Iron Fist”, el protagonista descubrirá que el asesino de sus padres participará en el mismo, por lo que él también se apuntará y deberá luchar contra duros competidores hasta alcanzar su meta.


Título original: Tekken
País: Japón, USA
Estreno en USA:
Estreno en España:
Productora: Crystal Sky Pictures
Director: Dwight H. Little
Guión: Michael Colleary y Alan B. McElroy
Reparto: Jon Foo, Marian Zapico, Gary Daniels, Ian Anthony Dale, Mircea Monroe, Luke Goss
General
Format : AVI
Format/Info : Audio Video Interleave
File size : 722 MiB
Duration : 1h 26mn
Overall bit rate : 1 161 Kbps
Writing application : Noir's Hyper HD Xvid
Writing library : VirtualDub build 31953/release
Original source form : Noir's Shit
Copyright : By Noir

Video
ID : 0
Format : MPEG-4 Visual
Format profile : [email protected]
Format settings, BVOP : Yes
Format settings, QPel : No
Format settings, GMC : No warppoints
Format settings, Matrix : Default (H.263)
Muxing mode : Packed bitstream
Codec ID : XVID
Codec ID/Hint : XviD
Duration : 1h 26mn
Bit rate : 992 Kbps
Width : 640 pixels
Height : 352 pixels
Display aspect ratio : 16:9
Frame rate : 25.000 fps
Resolution : 24 bits
Colorimetry : 4:2:0
Scan type : Progressive
Bits/(Pixel*Frame) : 0.176
Stream size : 616 MiB (85%)
Writing library : XviD 1.2.1 (UTC 2008-12-04)

Audio
ID : 1
Format : MPEG Audio
Format version : Version 1
Format profile : Layer 3
Codec ID : 55
Codec ID/Hint : MP3
Duration : 1h 26mn
Bit rate mode : Constant
Bit rate : 160 Kbps
Channel(s) : 2 channels
Sampling rate : 48.0 KHz
Resolution : 16 bits
Stream size : 99.4 MiB (14%)
Alignment : Split accross interleaves
Interleave, duration : 40 ms (1.00 video frame)
Interleave, preload duration : 500 ms





DOWNLOAD 1 LINK


por gigasize

http://www.gigasize.com/get.php?d=2zbjkwqcbjd
por megaupload


http://www.megaupload.com/?d=76Z9299N

ONLINE AQUI
http://www.megavideo.com/?d=76Z9299N

0
0
0
0
0No comments yet